Padmaavat 720p DesiPre-Rip x264 MP3 Mafiaking M2Tv Torrent Download Movie - BingTorrent


Torrent Name:    Padmaavat hindi

Year of Release:    2018

Language :    Hindi

Size:    1.19 GB

Updated on:    2018-01-27 08:53:00

Category :    Bollywood



Padmaavat hindi Torent Details

Video
ID : 1
Format : AVC
Codec ID : V_MPEG4/ISO/AVC
Duration : 2 h 36 min
Bit rate : 951 kb/s
Width : 1 280 pixels
Height : 544 pixels
Display aspect ratio : 2.35:1
Frame rate mode : Constant
Frame rate : 25.000 FPS
Stream size : 1.04 GiB (88%)
Title : Mafiaking
Language : Hindi
Default : Yes
Forced : No

Audio
ID : 2
Format : MPEG Audio
Codec ID/Hint : MP3
Duration : 2 h 36 min
Bit rate mode : Constant
Bit rate : 128 kb/s
Channel(s) : 2 channels
Stream size : 143 MiB (12%)
Language : Hindi
Default : Yes
Forced : No
2017 movie torrent

Padmaavat hindi Trailer:



XXX(porn) only For 18 Plus

New Indian Xxx Bhaabi Videos | Bengali Hot Couples Mms | Pakistani Hot Hidden Cam Girls | Arab beautiful Girls Sex Videos | English Hot Babes Porn, Hot wife | Russian Hot teen Girls Videos | Spanish Sex | German / Italian / French / Brazilian / Philippines Milfs Step Moms ... Enjoy but only 18 plus are Allowd ..



18 plus videos

Screen Shots:

How people Searches For Padmaavat hindi

  • Padmaavat hindi torrent

  • Padmaavat hindi movie download torrent

  • Padmaavat hindi movie download

  • Padmaavat hindi 2017 torrent

  • Padmaavat hindi movie torrent

  • Padmaavat hindi hd movie torrent

  • Padmaavat hindi Full hd Movie Download
  • Padmaavat hindi torrent kickass

  • Padmaavat hindi torrent tpb

Your Comments