18 plus videos

BayWatch 2017 EXTENDED 720p BluRay Eng Hindi 5-1 Torrent Download Movie - BingTorrent


Torrent Name:    BayWatch

Year of Release:    2017

Language :    Hindi - English

Size:    1.19 GB

Updated on:    2017-12-14 12:34:55

Category :    DubbedInHindi



BayWatch Torent Details

BayWatch 2017 EXTENDED 720p BluRay Eng.Hindi 5.1
Video
ID : 1
Format : AVC
Duration : 2 h 1 min
Bit rate : 950 kb/s
Width : 1 280 pixels
Height : 536 pixels
Display aspect ratio : 2.40:1
Frame rate mode : Constant
Frame rate : 23.976 (24000/1001) FPS
Stream size : 822 MiB (68%)
Title : Mafiaking
Language : English
Default : Yes

Audio #1
ID : 2
Format : AC-3
Duration : 2 h 1 min
Bit rate mode : Constant
Bit rate : 224 kb/s
Channel(s) : 6 channels
Sampling rate : 48.0 kHz
Stream size : 194 MiB (16%)
Title : Mafiaking
Language : Hindi
Default : Yes

Audio #2
ID : 3
Format : AC-3
Duration : 2 h 1 min
Bit rate mode : Constant
Bit rate : 224 kb/s
Channel(s) : 6 channels
Sampling rate : 48.0 kHz
Stream size : 194 MiB (16%)
Title : Mafiaking
Language : English
Default : No

2017 movie torrent

BayWatch Trailer:



XXX(porn) only For 18 Plus

New Indian Xxx Bhaabi Videos | Bengali Hot Couples Mms | Pakistani Hot Hidden Cam Girls | Arab beautiful Girls Sex Videos | English Hot Babes Porn, Hot wife | Russian Hot teen Girls Videos | Spanish Sex | German / Italian / French / Brazilian / Philippines Milfs Step Moms ... Enjoy but only 18 plus are Allowd ..



18 plus videos

Screen Shots:

How people Searches For BayWatch

  • BayWatch torrent

  • BayWatch movie download torrent

  • BayWatch movie download

  • BayWatch 2017 torrent

  • BayWatch movie torrent

  • BayWatch hd movie torrent

  • BayWatch Full hd Movie Download
  • BayWatch torrent kickass

  • BayWatch torrent tpb

Your Comments


18 plus videos

Similar Torrents
(Top Newly added)